[2022] [欧美] [科幻] [x264-1080P] 铁血战士:猎物 Prey.2022.DUBBED.COMANCHE.1080p.DSNP.WEBRip.DDP5.1.Atmos.x264-NOGRP 5.10 GB

uump4 3天前

最新电影_MP4电影下载_铁血战士:猎物 Prey.2022.DUBBED.COMANCHE.1080p.DSNP.WEBRip.DDP5.1.Atmos.x264-NOGRP 5.10 GB

◎片  名 铁血战士:猎物 Prey / 铁血战士5 / 终极战士:兽猎者(台) / 铁血战士:骷髅 / Skulls / 铁血战士:狩猎追击(港)
◎年  代 2022
◎产  地 美国
◎类  别 动作 / 科幻 / 恐怖
◎语  言 英语
◎上映日期 2022-08-05(美国网络)
◎IMDb评分  6.5/10 from 857 users
◎IMDb链接  https://www.imdb.com/title/tt11866324/
◎豆瓣评分 /10 from 0 users
◎豆瓣链接 https://movie.douban.com/subject/35262994/
◎片  长 
◎导  演 丹·特拉亨伯格 Dan Trachtenberg
◎编  剧 
◎主  演 安伯·明迪桑德 Amber Midthunder
       戴恩·迪利格罗 Dane DiLiegro
       斯蒂芬·马蒂亚斯 Stefany Mathias
       斯托米·基普 Stormee Kipp
       达寇塔·比弗 Dakota Beavers

◎简  介

  Prey is coming to Hulu August 5                                    
      “Prey,” an all-new action-thriller from 20th Century Studios directed by Dan Trachtenberg (“The Boys,” “10 Cloverfield Lane”) and the newest entry in the “Predator” franchise, will stream August 5, 2022, exclusively on Hulu.                                    
                                          
      Set in the Comanche Nation 300 years ago, “Prey” is the story of a young woman, Naru, a fierce and highly skilled warrior. She has been raised in the shadow of some of the most legendary hunters who roam the Great Plains, so when danger threatens her camp, she sets out to protect her people. The prey she stalks, and ultimately confronts, turns out to be a highly evolved alien predator with a technically advanced arsenal, resulting in a vicious and terrifying showdown between the two adversaries.                                    
                                          
      “Prey” is directed by Dan Trachtenberg, written by Patrick Aison (“Jack Ryan,” “Treadstone”), and produced by John Davis (“Jungle Cruise,” “The Predator”) and Jhane Myers (“Monsters of God”), with Lawrence Gordon (“Watchmen”), Marty Ewing (“It: Chapter Two”), James E. Thomas, John C. Thomas and Marc Toberoff (“Fantasy Island”) serving as executive producers.                                    
                                          
      The filmmakers were committed to creating a film that provides an accurate portrayal of the Comanche and brings a level of authenticity that rings true to its Indigenous peoples. Myers, an acclaimed filmmaker, Sundance Fellow and member of the Comanche nation herself, is known for her attention and dedication to films surrounding the Comanche and Blackfeet nations and her passion for honoring the legacies of the Native communities. As a result, the film features a cast comprised almost entirely of Native and First Nation’s talent, including Amber Midthunder (“The Ice Road,” “Roswell, New Mexico”), newcomer Dakota Beavers, Stormee Kipp (“Sooyii”), Michelle Thrush (“The Journey Home”), Julian Black Antelope (“Tribal”).



Video
ID           : 1
Format       : AVC
Format/Info      : Advanced Video Codec
Format profile       : [email protected]
Format settings      : CABAC / 4 Ref Frames
Format settings, CABAC       : Yes
Format settings, Reference frames    : 4 frames
Codec ID         : V_MPEG4/ISO/AVC
Duration         : 1 h 39 min
Bit rate mode        : Variable
Bit rate         : 6 571 kb/s
Maximum bit rate     : 12.7 Mb/s
Width        : 1 920 pixels
Height       : 1 080 pixels
Display aspect ratio     : 16:9
Frame rate mode      : Constant
Frame rate       : 24.000 FPS
Color space      : YUV
Chroma subsampling       : 4:2:0
Bit depth        : 8 bits
Scan type        : Progressive
Bits/(Pixel*Frame)       : 0.132
Stream size      : 4.57 GiB (90%)
Default          : Yes
Forced       : No
Color range      : Limited
Color primaries      : BT.709
Transfer characteristics     : BT.709
Matrix coefficients      : BT.709

Audio
ID           : 2
Format       : E-AC-3 JOC
Format/Info      : Enhanced AC-3 with Joint Object Coding
Commercial name      : Dolby Digital Plus with Dolby Atmos
Codec ID         : A_EAC3
Duration         : 1 h 39 min
Bit rate mode        : Constant
Bit rate         : 768 kb/s
Channel(s)       : 6 channels
Channel layout       : L R C LFE Ls Rs
Sampling rate        : 48.0 kHz
Frame rate       : 31.250 FPS (1536 SPF)
Compression mode     : Lossy
Stream size      : 547 MiB (10%)
Language         : English
Service kind         : Complete Main
Default          : Yes
Forced       : No
Complexity index     : 16
Number of dynamic objects    : 15
Bed channel count        : 1 channel
Bed channel configuration    : LFE

Text #1
ID           : 3
Format       : UTF-8
Codec ID         : S_TEXT/UTF8
Codec ID/Info        : UTF-8 Plain Text
Duration         : 1 h 26 min
Bit rate         : 0 b/s
Frame rate       : 0.001 FPS
Count of elements        : 4
Stream size      : 103 Bytes (0%)
Title        : Forced
Language         : English
Default          : No
Forced       : Yes

Text #2
ID           : 4
Format       : UTF-8
Codec ID         : S_TEXT/UTF8
Codec ID/Info        : UTF-8 Plain Text
Duration         : 1 h 28 min
Bit rate         : 14 b/s
Frame rate       : 0.072 FPS
Count of elements        : 381
Stream size      : 9.28 KiB (0%)
Language         : English
Default          : Yes
Forced       : No

Text #3
ID           : 5
Format       : UTF-8
Codec ID         : S_TEXT/UTF8
Codec ID/Info        : UTF-8 Plain Text
Duration         : 1 h 29 min
Bit rate         : 27 b/s
Frame rate       : 0.158 FPS
Count of elements        : 849
Stream size      : 18.4 KiB (0%)
Title        : SDH
Language         : English
Default          : No
Forced       : No

Text #4
ID           : 6
Format       : UTF-8
Codec ID         : S_TEXT/UTF8
Codec ID/Info        : UTF-8 Plain Text
Duration         : 1 h 38 min
Bit rate         : 10 b/s
Frame rate       : 0.048 FPS
Count of elements        : 287
Stream size      : 7.77 KiB (0%)
Language         : Czech
Default          : No
Forced       : No

Text #5
ID           : 7
Format       : UTF-8
Codec ID         : S_TEXT/UTF8
Codec ID/Info        : UTF-8 Plain Text
Duration         : 1 h 38 min
Bit rate         : 10 b/s
Frame rate       : 0.050 FPS
Count of elements        : 296
Stream size      : 7.69 KiB (0%)
Language         : Danish
Default          : No
Forced       : No

Text #6
ID           : 8
Format       : UTF-8
Codec ID         : S_TEXT/UTF8
Codec ID/Info        : UTF-8 Plain Text
Duration         : 1 h 38 min
Bit rate         : 11 b/s
Frame rate       : 0.048 FPS
Count of elements        : 286
Stream size      : 8.25 KiB (0%)
Language         : German
Default          : No
Forced       : No

Text #7
ID           : 9
Format       : UTF-8
Codec ID         : S_TEXT/UTF8
Codec ID/Info        : UTF-8 Plain Text
Duration         : 1 h 38 min
Bit rate         : 19 b/s
Frame rate       : 0.050 FPS
Count of elements        : 299
Stream size      : 14.1 KiB (0%)
Language         : Greek
Default          : No
Forced       : No

Text #8
ID           : 10
Format       : UTF-8
Codec ID         : S_TEXT/UTF8
Codec ID/Info        : UTF-8 Plain Text
Duration         : 1 h 38 min
Bit rate         : 10 b/s
Frame rate       : 0.050 FPS
Count of elements        : 297
Stream size      : 7.83 KiB (0%)
Title        : Latin American
Language         : Spanish
Default          : No
Forced       : No

Text #9
ID           : 11
Format       : UTF-8
Codec ID         : S_TEXT/UTF8
Codec ID/Info        : UTF-8 Plain Text
Duration         : 1 h 38 min
Bit rate         : 11 b/s
Frame rate       : 0.050 FPS
Count of elements        : 298
Stream size      : 8.21 KiB (0%)
Language         : Spanish
Default          : No
Forced       : No

Text #10
ID           : 12
Format       : UTF-8
Codec ID         : S_TEXT/UTF8
Codec ID/Info        : UTF-8 Plain Text
Duration         : 1 h 38 min
Bit rate         : 11 b/s
Frame rate       : 0.049 FPS
Count of elements        : 293
Stream size      : 8.37 KiB (0%)
Language         : Finnish
Default          : No
Forced       : No

Text #11
ID           : 13
Format       : UTF-8
Codec ID         : S_TEXT/UTF8
Codec ID/Info        : UTF-8 Plain Text
Duration         : 1 h 38 min
Bit rate         : 11 b/s
Frame rate       : 0.049 FPS
Count of elements        : 290
Stream size      : 8.24 KiB (0%)
Language         : French
Default          : No
Forced       : No

Text #12
ID           : 14
Format       : UTF-8
Codec ID         : S_TEXT/UTF8
Codec ID/Info        : UTF-8 Plain Text
Duration         : 1 h 38 min
Bit rate         : 10 b/s
Frame rate       : 0.050 FPS
Count of elements        : 297
Stream size      : 7.92 KiB (0%)
Language         : Hungarian
Default          : No
Forced       : No

Text #13
ID           : 15
Format       : UTF-8
Codec ID         : S_TEXT/UTF8
Codec ID/Info        : UTF-8 Plain Text
Duration         : 1 h 38 min
Bit rate         : 10 b/s
Frame rate       : 0.049 FPS
Count of elements        : 292
Stream size      : 7.41 KiB (0%)
Language         : Italian
Default          : No
Forced       : No

Text #14
ID           : 16
Format       : UTF-8
Codec ID         : S_TEXT/UTF8
Codec ID/Info        : UTF-8 Plain Text
Duration         : 1 h 38 min
Bit rate         : 12 b/s
Frame rate       : 0.061 FPS
Count of elements        : 364
Stream size      : 9.29 KiB (0%)
Language         : Japanese
Default          : No
Forced       : No

Text #15
ID           : 17
Format       : UTF-8
Codec ID         : S_TEXT/UTF8
Codec ID/Info        : UTF-8 Plain Text
Duration         : 1 h 38 min
Bit rate         : 11 b/s
Frame rate       : 0.050 FPS
Count of elements        : 299
Stream size      : 8.63 KiB (0%)
Language         : Korean
Default          : No
Forced       : No

Text #16
ID           : 18
Format       : UTF-8
Codec ID         : S_TEXT/UTF8
Codec ID/Info        : UTF-8 Plain Text
Duration         : 1 h 38 min
Bit rate         : 11 b/s
Frame rate       : 0.045 FPS
Count of elements        : 267
Stream size      : 8.13 KiB (0%)
Language         : Dutch
Default          : No
Forced       : No

Text #17
ID           : 19
Format       : UTF-8
Codec ID         : S_TEXT/UTF8
Codec ID/Info        : UTF-8 Plain Text
Duration         : 1 h 38 min
Bit rate         : 11 b/s
Frame rate       : 0.038 FPS
Count of elements        : 227
Stream size      : 8.23 KiB (0%)
Language         : Norwegian
Default          : No
Forced       : No

Text #18
ID           : 20
Format       : UTF-8
Codec ID         : S_TEXT/UTF8
Codec ID/Info        : UTF-8 Plain Text
Duration         : 1 h 38 min
Bit rate         : 10 b/s
Frame rate       : 0.049 FPS
Count of elements        : 290
Stream size      : 7.81 KiB (0%)
Language         : Polish
Default          : No
Forced       : No

Text #19
ID           : 21
Format       : UTF-8
Codec ID         : S_TEXT/UTF8
Codec ID/Info        : UTF-8 Plain Text
Duration         : 1 h 38 min
Bit rate         : 11 b/s
Frame rate       : 0.050 FPS
Count of elements        : 295
Stream size      : 8.14 KiB (0%)
Title        : Brazilian
Language         : Portuguese
Default          : No
Forced       : No

Text #20
ID           : 22
Format       : UTF-8
Codec ID         : S_TEXT/UTF8
Codec ID/Info        : UTF-8 Plain Text
Duration         : 1 h 38 min
Bit rate         : 11 b/s
Frame rate       : 0.050 FPS
Count of elements        : 296
Stream size      : 8.29 KiB (0%)
Language         : Portuguese
Default          : No
Forced       : No

Text #21
ID           : 23
Format       : UTF-8
Codec ID         : S_TEXT/UTF8
Codec ID/Info        : UTF-8 Plain Text
Duration         : 1 h 38 min
Bit rate         : 11 b/s
Frame rate       : 0.044 FPS
Count of elements        : 261
Stream size      : 8.02 KiB (0%)
Language         : Romanian
Default          : No
Forced       : No

Text #22
ID           : 24
Format       : UTF-8
Codec ID         : S_TEXT/UTF8
Codec ID/Info        : UTF-8 Plain Text
Duration         : 1 h 38 min
Bit rate         : 10 b/s
Frame rate       : 0.050 FPS
Count of elements        : 298
Stream size      : 7.83 KiB (0%)
Language         : Slovak
Default          : No
Forced       : No

Text #23
ID           : 25
Format       : UTF-8
Codec ID         : S_TEXT/UTF8
Codec ID/Info        : UTF-8 Plain Text
Duration         : 1 h 38 min
Bit rate         : 10 b/s
Frame rate       : 0.050 FPS
Count of elements        : 295
Stream size      : 7.71 KiB (0%)
Language         : Swedish
Default          : No
Forced       : No

Text #24
ID           : 26
Format       : UTF-8
Codec ID         : S_TEXT/UTF8
Codec ID/Info        : UTF-8 Plain Text
Duration         : 1 h 38 min
Bit rate         : 11 b/s
Frame rate       : 0.050 FPS
Count of elements        : 296
Stream size      : 8.23 KiB (0%)
Language         : Turkish
Default          : No
Forced       : No

Text #25
ID           : 27
Format       : UTF-8
Codec ID         : S_TEXT/UTF8
Codec ID/Info        : UTF-8 Plain Text
Duration         : 1 h 38 min
Bit rate         : 10 b/s
Frame rate       : 0.050 FPS
Count of elements        : 298
Stream size      : 7.91 KiB (0%)
Title        : Hong Kong
Language         : Chinese
Default          : No
Forced       : No

Text #26
ID           : 28
Format       : UTF-8
Codec ID         : S_TEXT/UTF8
Codec ID/Info        : UTF-8 Plain Text
Duration         : 1 h 38 min
Bit rate         : 11 b/s
Frame rate       : 0.050 FPS
Count of elements        : 299
Stream size      : 8.31 KiB (0%)
Title        : Simplified
Language         : Chinese
Default          : No
Forced       : No

Text #27
ID           : 29
Format       : UTF-8
Codec ID         : S_TEXT/UTF8
Codec ID/Info        : UTF-8 Plain Text
Duration         : 1 h 38 min
Bit rate         : 10 b/s
Frame rate       : 0.050 FPS
Count of elements        : 299
Stream size      : 7.91 KiB (0%)
Title        : Traditional
Language         : Chinese
Default          : No
Forced       : No



最新电影_MP4电影下载_铁血战士:猎物 Prey.2022.DUBBED.COMANCHE.1080p.DSNP.WEBRip.DDP5.1.Atmos.x264-NOGRP 5.10 GB
最新电影_MP4电影下载_铁血战士:猎物 Prey.2022.DUBBED.COMANCHE.1080p.DSNP.WEBRip.DDP5.1.Atmos.x264-NOGRP 5.10 GB
最新电影_MP4电影下载_铁血战士:猎物 Prey.2022.DUBBED.COMANCHE.1080p.DSNP.WEBRip.DDP5.1.Atmos.x264-NOGRP 5.10 GB

磁力链接

magnet:?xt=urn:btih:d652ad6bdac437e5b1c485858d49e04718ff76ab

上传的附件:
最新回复 (0)
返回
本站所有资源均收集自互联网,没有提供影片资源存储, 也未参与录制、上传,若本站收录的资源无意侵犯了您的权益, 请联系邮箱:gogoimgs#gmail.com(#[email protected])