[更早] [欧美] [恐怖] [x264-720P] 鬼屋1992 Amityville.1992.Its.About.Time.1992.720p.BluRay.x264-GAZER 3.45 GB

uump4 3天前

最新电影_MP4电影下载_鬼屋1992 Amityville.1992.Its.About.Time.1992.720p.BluRay.x264-GAZER 3.45 GB

◎片  名 鬼屋1992 Amityville 1992: It's About Time / 鬼哭神嚎6
◎年  代 1992
◎产  地 美国
◎类  别 恐怖
◎语  言 英语
◎上映日期 1992-07-16
◎IMDb评分  4.6/10 from 2920 users
◎IMDb链接  https://www.imdb.com/title/tt0103678/
◎豆瓣评分 /10 from 0 users
◎豆瓣链接 https://movie.douban.com/subject/1306278/
◎片  长 95分钟
◎导  演 托尼·兰德尔 Tony Randel
◎编  剧 克里斯托弗·德法里亚 Christopher DeFaria
◎主  演 梅甘·沃德 Megan Ward
       肖恩·威瑟利 Shawn Weatherly
       妮塔塔尔博特 Nita Talbot
       Dean Cochran Dean Cochran
       史蒂芬·马赫特 Stephen Macht
       乔纳森·潘内尔 Jonathan Penner
       迪克·米勒 Dick Miller

◎简  介

  Jacob Sterling brings home a mysterious clock from the infamous Amityville house, not knowing that it's haunted by demonic spirits.



Video
ID           : 1
Format       : AVC
Format/Info      : Advanced Video Codec
Format profile       : [email protected]
Format settings      : CABAC / 9 Ref Frames
Format settings, CABAC       : Yes
Format settings, Reference frames    : 9 frames
Codec ID         : V_MPEG4/ISO/AVC
Duration         : 1 h 35 min
Bit rate         : 4 373 kb/s
Width        : 1 280 pixels
Height       : 720 pixels
Display aspect ratio     : 16:9
Frame rate mode      : Constant
Frame rate       : 24.000 FPS
Color space      : YUV
Chroma subsampling       : 4:2:0
Bit depth        : 8 bits
Scan type        : Progressive
Bits/(Pixel*Frame)       : 0.198
Stream size      : 2.90 GiB (84%)
Writing library      : x264 core 164 r3095 baee400
Encoding settings        : cabac=1 / ref=9 / deblock=1:-3:-3 / analyse=0x3:0x133 / me=umh / subme=10 / psy=1 / psy_rd=1.20:0.00 / mixed_ref=1 / me_range=24 / chroma_me=1 / trellis=2 / 8x8dct=1 / cqm=0 / deadzone=21,11 / fast_pskip=0 / chroma_qp_offset=-2 / threads=22 / lookahead_threads=3 / sliced_threads=0 / nr=0 / decimate=0 / interlaced=0 / bluray_compat=0 / constrained_intra=0 / bframes=8 / b_pyramid=2 / b_adapt=2 / b_bias=0 / direct=3 / weightb=1 / open_gop=0 / weightp=2 / keyint=250 / keyint_min=24 / scenecut=40 / intra_refresh=0 / rc_lookahead=60 / rc=crf / mbtree=1 / crf=20.0 / qcomp=0.60 / qpmin=0 / qpmax=69 / qpstep=4 / ip_ratio=1.40 / aq=3:0.90
Default          : Yes
Forced       : No
Color range      : Limited
Matrix coefficients      : BT.709

Audio
ID           : 2
Format       : FLAC
Format/Info      : Free Lossless Audio Codec
Codec ID         : A_FLAC
Duration         : 1 h 35 min
Bit rate mode        : Variable
Bit rate         : 805 kb/s
Channel(s)       : 2 channels
Channel layout       : L R
Sampling rate        : 48.0 kHz
Frame rate       : 11.719 FPS (4096 SPF)
Bit depth        : 16 bits
Compression mode     : Lossless
Stream size      : 548 MiB (16%)
Writing library      : libFLAC 1.3.3 (UTC 2019-08-04)
Language         : English
Default          : Yes
Forced       : No

Text
ID           : 3
Format       : PGS
Muxing mode      : zlib
Codec ID         : S_HDMV/PGS
Codec ID/Info        : Picture based subtitle format used on BDs/HD-DVDs
Duration         : 1 h 32 min
Bit rate         : 25.8 kb/s
Count of elements        : 3174
Stream size      : 17.1 MiB (0%)
Title        : SDH
Language         : English
Default          : No
Forced       : No

Menu
00:00:00.000         : Chapter 01
00:14:28.917         : Chapter 02
00:25:10.958         : Chapter 03
00:34:23.875         : Chapter 04
00:50:17.167         : Chapter 05
01:00:01.500         : Chapter 06
01:10:32.083         : Chapter 07
01:27:25.250         : Chapter 08
01:35:04.542         : Chapter 09



Screenshots:
最新电影_MP4电影下载_鬼屋1992 Amityville.1992.Its.About.Time.1992.720p.BluRay.x264-GAZER 3.45 GB
Amityville.1992.Its.About.Time.1992.720p.BluRay.x264-GAZER

iMDB_______:      https://www.imdb.com/title/tt0103678
RUNTiME____:      1 h 35 min
ViDEO______:      CRF 20 @ 4373 Kbps
SOURCE_____:      19998 Kbps
RESOLUTiON_:      1280x720
FPS________:      24 fps
AUDiO______:      English FLAC 2.0 805 Kbps
SiZE_______:      3530 MB
SUBTiTLES__:      English

磁力链接

magnet:?xt=urn:btih:a69886fdc39ee559267da01b93b1d333473c3478

上传的附件:
最新回复 (0)
返回
本站所有资源均收集自互联网,没有提供影片资源存储, 也未参与录制、上传,若本站收录的资源无意侵犯了您的权益, 请联系邮箱:gogoimgs#gmail.com(#[email protected])